layout

Terminator Genisys 2015 HQCAM x264-CPG

Torrent ID# F46E8C10B4C9AB0EB4A25108D9E6727BD5EDE7A7
NA
Added 2015-07-04 11:14:33   
Size 1.84 GiB in 5 files
Share
Category Video > Movies
Terminator Genisys 2015 HQCAM x264-CPG
Description
http://extraimago.com/image/701
 
http://www.imdb.com/title/tt1340138/


John Connor sends Kyle Reese back in time to protect Sarah Connor, but when he arrives in 1984, nothing is as he expected it to be.

Director: Alan Taylor
Writers: Laeta Kalogridis, Patrick Lussier
Stars: Arnold Schwarzenegger, Jason Clarke, Emilia Clarke 
Genres: Action | Adventure | Sci-Fi | Thriller
Country: USA
Language: English


what a load of crap this movie is, without a doubt the worst terminator movie ever. even mini TV film was better then this crap. i should have wait for australian line audio by Hive but movie like this i dont really care Anyways....
 
First of all  props to EVE for giving full Justice to HD tag lately. those who dont know HD stand for High Definition.

Now lets talk about CAM, i use Spanish it was ok CAM but it was dark as hell, grainy, noisy, off perspective, little movements here n there nothing big though, bing bara po bara paa (minions.... . i went to work on it cut the the video in 2 parts.  most of the movie filmed in dark thatsway it was dark source,  i did what i can with it spend some extra time on it and did some intensive work, Now you can surely make it out of it... . those who had downloaded previous versions will see improvements in this one and will know why they call me Rated R.
few seconds are missing from start but nothing is big to hurt your story then there is scene in the middle where Arnold use his Shotgun and destroy Ted (poor tedy...  but nothing so biggy.

Thx to my man MRG for good HQ Audio. run through it with usual cleaning stuff got pretty good for CAM then synced to my video.

HQ Stand for High Quality, 3 Samples included check it First. and FFS dont complain on CAMs, CAMs are CAMs either get yourself a NEW CAM or Dont Click on any Torrent with CAM or TS tag. find yourself a way to Cinema. pirates are not your servant its free take it or leave it. 

General
Format                                   : Matroska
Format version                           : Version 4 / Version 2
File size                                : 1.80 GiB
Duration                                 : 1h 55mn
Overall bit rate mode                    : Variable
Overall bit rate                         : 2 220 Kbps
Encoded date                             : UTC 2015-07-03 21:49:38
Writing application                      : mkvmerge v8.1.0 ('Psychedelic Postcard') 64bit
Writing library                          : libebml v1.3.1 + libmatroska v1.4.2
DURATION                                 : 01:55:55.296000000
NUMBER_OF_FRAMES                         : 289804
NUMBER_OF_BYTES                          : 222569472
_STATISTICS_WRITING_APP                  : mkvmerge v8.1.0 ('Psychedelic Postcard') 64bit
_STATISTICS_WRITING_DATE_UTC             : 2015-07-03 21:49:38
_STATISTICS_TAGS                         : BPS DURATION NUMBER_OF_FRAMES NUMBER_OF_BYTES

Video
ID                                       : 1
Format                                   : AVC
Format/Info                              : Advanced Video Codec
Format profile                           : [email protected]
Format settings, CABAC                   : Yes
Format settings, ReFrames                : 3 frames
Codec ID                                 : V_MPEG4/ISO/AVC
Duration                                 : 1h 55mn
Bit rate mode                            : Variable
Bit rate                                 : 1 950 Kbps
Maximum bit rate                         : 40.0 Mbps
Width                                    : 712 pixels
Height                                   : 320 pixels
Display aspect ratio                     : 2.225
Frame rate                               : 29.917 fps
Color space                              : YUV
Chroma subsampling                       : 4:2:0
Bit depth                                : 8 bits
Scan type                                : Progressive
Bits/(Pixel*Frame)                       : 0.286
Stream size                              : 1.55 GiB (86%)
Writing library                          : x264 core 146 r2538 121396c
Encoding settings                        : cabac=1 / ref=4 / deblock=1:-1:-1 / analyse=0x3:0x133 / me=umh / subme=9 / psy=1 / psy_rd=1.00:0.15 / mixed_ref=1 / me_range=18 / chroma_me=1 / trellis=2 / 8x8dct=1 / cqm=0 / deadzone=21,11 / fast_pskip=0 / chroma_qp_offset=-3 / threads=16 / lookahead_threads=1 / sliced_threads=0 / slices=4 / nr=0 / decimate=1 / interlaced=0 / bluray_compat=0 / constrained_intra=0 / bframes=3 / b_pyramid=1 / b_adapt=2 / b_bias=0 / direct=3 / weightb=1 / open_gop=0 / weightp=0 / keyint=299 / keyint_min=29 / scenecut=40 / intra_refresh=0 / rc_lookahead=40 / rc=abr / mbtree=1 / bitrate=1950 / ratetol=1.0 / qcomp=0.60 / qpmin=10 / qpmax=51 / qpstep=4 / vbv_maxrate=40000 / vbv_bufsize=30000 / nal_hrd=vbr / filler=0 / ip_ratio=1.40 / aq=1:1.00
Default                                  : Yes
Forced                                   : No
Color primaries                          : BT.709-5, BT.1361, IEC 61966-2-4, SMPTE RP177
Transfer characteristics                 : BT.709-5, BT.1361
Matrix coefficients                      : BT.709-5, BT.1361, IEC 61966-2-4 709, SMPTE RP177

Audio
ID                                       : 2
Format                                   : MPEG Audio
Format version                           : Version 1
Format profile                           : Layer 3
Mode                                     : Joint stereo
Mode extension                           : MS Stereo
Codec ID                                 : A_MPEG/L3
Codec ID/Hint                            : MP3
Duration                                 : 1h 55mn
Bit rate mode                            : Constant
Bit rate                                 : 256 Kbps
Channel(s)                               : 2 channels
Sampling rate                            : 48.0 KHz
Compression mode                         : Lossy
Delay relative to video                  : 16ms
Stream size                              : 212 MiB (12%)
Writing library                          : LAME
Default                                  : Yes
Forced                                   : No

 
http://extraimago.com/image/7XZ 
http://extraimago.com/image/7Xe 
http://extraimago.com/image/7X4 
http://extraimago.com/image/7XB 
http://extraimago.com/image/7XC 
http://extraimago.com/image/7XY 
http://extraimago.com/image/7Xp 
http://extraimago.com/image/7Xr


Watch Movie | we happy few | November 8, 2018