layout

Terminator Genisys {2015} HC HD 720P X264 AC3-MRG

Torrent ID# E2033EE9B5DAE3182E87277F3E310C925C00A936
NA
Added 2015-08-08 11:48:03   
Size 907.07 MiB in 5 files
Share
Category Video > HD - Movies
Terminator Genisys {2015} HC HD 720P X264 AC3-MRG
Description
Terminator Genisys {2015} HC HD 720P X264 AC3-MRG.mkv


Source : Showscen,,ty
Format : Matroska
Format version : Version 4 / Version 2
File size : 907 MiB
Duration : 2h 0mn
Overall bit rate : 1 054 Kbps

Video
ID : 1
Format : AVC
Format/Info : Advanced Video Codec
Format profile : Main@L4
Format settings, CABAC : Yes
Format settings, ReFrames : 4 frames
Codec ID : V_MPEG4/ISO/AVC
Duration : 2h 0mn
Bit rate : 809 Kbps
Width : 1 280 pixels
Height : 536 pixels
Display aspect ratio : 2.40:1
Frame rate mode : Constant
Frame rate : 30.000 fps
Color space : YUV
Chroma subsampling : 4:2:0
Bit depth : 8 bits
Scan type : Progressive
Bits/(Pixel*Frame) : 0.039
Stream size : 696 MiB (77%)
Default : Yes
Forced : No
Color range : Limited
Color primaries : BT.709
Transfer characteristics : BT.709
Matrix coefficients : BT.709

Audio
ID : 2
Format : AC-3
Format/Info : Audio Coding 3
Mode extension : CM (complete main)
Format settings, Endianness : Big
Codec ID : A_AC3
Duration : 2h 0mn
Bit rate mode : Constant
Bit rate : 224 Kbps
Channel(s) : 2 channels
Channel positions : Front: L R
Sampling rate : 48.0 KHz
Compression mode : Lossy
Delay relative to video : 30ms
Stream size : 193 MiB (21%)
Language : English
Default : Yes
Forced : No
 
http://extraimago.com/image/SZv


Victoria Abdul (2017) | Concise Oxford Thesaurus v9.1.363 APK Full Version | Schindlerův seznam