layout

Ariana Grande - Focus [1080p]

Torrent ID# DF208B475FE1807693447BA2DB4EB50A6B40BB15
NA
Added 2015-11-01 17:24:20   
Size 67.59 MiB in 1 files
Share
Category Video > Music videos
Ariana Grande - Focus [1080p]
Description
General

Format                         : MPEG-4
Format profile                 : Base Media
Codec ID                       : isom
File size                      : 67.6 MiB
Duration                       : 3mn 45s
Overall bit rate               : 2 520 Kbps
Writing application            : Lavf55.33.100

Video
ID                             : 1
Format                         : AVC
Format/Info                    : Advanced Video Codec
Format profile                 : High@L4
Format settings, CABAC         : Yes
Format settings, ReFrames      : 3 frames
Codec ID                       : avc1
Codec ID/Info                  : Advanced Video Coding
Duration                       : 3mn 44s
Bit rate                       : 2 388 Kbps
Width                          : 1 920 pixels
Height                         : 1 080 pixels
Display aspect ratio           : 16:9
Frame rate mode                : Variable
Frame rate                     : 23.976 fps
Minimum frame rate             : 23.974 fps
Maximum frame rate             : 90 000.000 fps
Color space                    : YUV
Chroma subsampling             : 4:2:0
Bit depth                      : 8 bits
Scan type                      : Progressive
Bits/(Pixel*Frame)             : 0.048
Stream size                    : 64.0 MiB (95%)
Color range                    : Limited
Color primaries                : BT.709
Transfer characteristics       : BT.709
Matrix coefficients            : BT.709

Audio
ID                             : 2
Format                         : AAC
Format/Info                    : Advanced Audio Codec
Format profile                 : LC
Codec ID                       : 40
Duration                       : 3mn 45s
Bit rate mode                  : Constant
Bit rate                       : 126 Kbps
Channel(s)                     : 2 channels
Channel positions              : Front: L R
Sampling rate                  : 44.1 KHz
Compression mode               : Lossy
Stream size                    : 3.37 MiB (5%)


Shadow Hawk Green Tactical Laser Pointer Lazer Pen Visible Beam Light 18650 Set$10.78 9d left | Kaguya-sama wa Kokurasetai: Tensai-tachi no Renai Zunousen | << here >>