layout

Spy {2015} NEW HDTS XVID AC3-MRG

Torrent ID# DED2FA9FFB9E6710676996B2D920E55491EBC5D3
NA
Added 2015-06-24 12:07:34   
Size 1.62 GiB in 15 files
Share
Seeders & Leechers 8564/5499
Category Video > Movies
Spy {2015} NEW HDTS XVID AC3-MRG
Description
screens:
 
http://imgmak.com/9f
 
http://imgmak.com/9E
 
http://imgmak.com/9h

::::::::::

Spy {2015} NEW HDTS XVID AC3-MRG

Format                      : AVI
Format/Info                 : Audio Video Interleave
File size                   : 1.62 GiB
Duration                    : 1h 54mn
Overall bit rate            : 2 027 Kbps
Writing library             : VirtualDub build 35491/release

Video
ID                          : 0
Format                      : MPEG-4 Visual
Format profile              : Advanced Simple@L5
Format settings, BVOP       : 2
Format settings, QPel       : No
Format settings, GMC        : No warppoints
Format settings, Matrix     : Default (H.263)
Muxing mode                 : Packed bitstream
Codec ID                    : XVID
Codec ID/Hint               : XviD
Duration                    : 1h 54mn
Bit rate                    : 1 887 Kbps
Width                       : 720 pixels
Height                      : 304 pixels
Display aspect ratio        : 2.35:1
Frame rate                  : 29.970 fps
Color space                 : YUV
Chroma subsampling          : 4:2:0
Bit depth                   : 8 bits
Scan type                   : Progressive
Compression mode            : Lossy
Bits/(Pixel*Frame)          : 0.288
Stream size                 : 1.51 GiB (93%)
Writing library             : XviD 73

Audio
ID                          : 1
Format                      : AC-3
Format/Info                 : Audio Coding 3
Mode extension              : CM (complete main)
Format settings, Endianness : Big
Codec ID                    : 2000
Duration                    : 1h 54mn
Bit rate mode               : Constant
Bit rate                    : 128 Kbps
Channel(s)                  : 2 channels
Channel positions           : Front: L R
Sampling rate               : 48.0 KHz
Compression mode            : Lossy
Stream size                 : 105 MiB (6%)
Alignment                   : Split accross interleaves
Interleave, duration        : 33 ms (1.00 video frame)
Interleave, preload duratio : 500 ms


Uri The Surgical Strike 2019 Hindi PreDvDRip x264 AAC 2.0 - xRG | Judith Anderson | download Glitch latest apk