layout

Terminator Genisys {2015} HQTS XVID AC3 READNFO-MRG

Torrent ID# C486699E2638B1CC9CAC981F806D6D65559DB90B
NA
Added 2015-07-06 15:33:09   
Size 1.65 GiB in 18 files
Share
Seeders & Leechers 256/574
Category Video > Movies
Terminator Genisys {2015} HQTS XVID AC3 READNFO-MRG
Description
http://extraimago.com/image/7fG 
http://extraimago.com/image/7fr 
http://extraimago.com/image/7fp 
http://extraimago.com/image/7fY 
http://extraimago.com/image/7fC 
http://extraimago.com/image/7fB 
http://extraimago.com/image/7f4 
http://extraimago.com/image/7fe 
http://extraimago.com/image/7fZ 
http://extraimago.com/image/7fK 
http://extraimago.com/image/7fJ 
http://extraimago.com/image/7f0 
http://extraimago.com/image/7fz 
http://extraimago.com/image/7fU

..............Terminator Genisys {2015} TS XVID AC3 READNFO-MRG...................
..................................................................................
nfo: fixed AR filterd vid..:)added line audio frm CM8...thanks guys...sweet as
     allways....
..................................................................................
Format                      : AVI
Format/Info                 : Audio Video Interleave
File size                   : 1.64 GiB
Duration                    : 1h 57mn
Overall bit rate            : 2 013 Kbps
Writing library             : VirtualDub build 35491/release

Video
ID                          : 0
Format                      : MPEG-4 Visual
Format profile              : Advanced Simple@L5
Format settings, BVOP       : 2
Format settings, QPel       : No
Format settings, GMC        : No warppoints
Format settings, Matrix     : Default (H.263)
Codec ID                    : XVID
Codec ID/Hint               : XviD
Duration                    : 1h 57mn
Bit rate                    : 1 745 Kbps
Width                       : 720 pixels
Height                      : 304 pixels
Display aspect ratio        : 2.35:1
Frame rate                  : 30.000 fps
Color space                 : YUV
Chroma subsampling          : 4:2:0
Bit depth                   : 8 bits
Scan type                   : Progressive
Compression mode            : Lossy
Bits/(Pixel*Frame)          : 0.266
Stream size                 : 1.43 GiB (87%)
Writing library             : XviD 73

Audio
ID                          : 1
Format                      : AC-3
Format/Info                 : Audio Coding 3
Mode extension              : CM (complete main)
Format settings, Endianness : Big
Codec ID                    : 2000
Duration                    : 1h 56mn
Bit rate mode               : Constant
Bit rate                    : 256 Kbps
Channel(s)                  : 2 channels
Channel positions           : Front: L R
Sampling rate               : 48.0 KHz
Bit depth                   : 16 bits
Compression mode            : Lossy
Stream size                 : 214 MiB (13%)
Alignment                   : Split accross interleaves
Interleave, duration        : 33 ms (1.00 video frame)
Interleave, preload duratio : 500 ms

[email protected]


wohnwagen Hobby | Mary and the Witch's Flower (2017) | Play Movie