layout

Terminator Genisys {2015} HQCAM XVID MP3-MRG

Torrent ID# BBD33EEDD5FF469BD4532110436B991FBD68F714
NA
Added 2015-07-02 17:29:56   
Size 1.87 GiB in 15 files
Share
Seeders & Leechers 3679/9550
Category Video > Movies
Terminator Genisys {2015} HQCAM XVID MP3-MRG
Description
Terminator Genisys {2015} HQCAM XVID MP3-MRG

Format                      : AVI
Format/Info                 : Audio Video Interleave
File size                   : 1.87 GiB
Duration                    : 1h 56mn
Overall bit rate            : 2 287 Kbps

Video
ID                          : 0
Format                      : MPEG-4 Visual
Format profile              : Advanced Simple@L5
Format settings, BVOP       : 2
Format settings, QPel       : No
Format settings, GMC        : No warppoints
Format settings, Matrix     : Default (H.263)
Muxing mode                 : Packed bitstream
Codec ID                    : XVID
Codec ID/Hint               : XviD
Duration                    : 1h 56mn
Bit rate                    : 1 956 Kbps
Width                       : 720 pixels
Height                      : 324 pixels
Display aspect ratio        : 2.222
Frame rate                  : 29.970 fps
Color space                 : YUV
Chroma subsampling          : 4:2:0
Bit depth                   : 8 bits
Scan type                   : Progressive
Compression mode            : Lossy
Bits/(Pixel*Frame)          : 0.280
Stream size                 : 1.60 GiB (86%)
Writing library             : XviD 73

Audio
ID                          : 1
Format                      : MPEG Audio
Format version              : Version 1
Format profile              : Layer 3
Mode                        : Joint stereo
Mode extension              : MS Stereo
Codec ID                    : 55
Codec ID/Hint               : MP3
Duration                    : 1h 55mn
Bit rate mode               : Constant
Bit rate                    : 320 Kbps
Channel(s)                  : 2 channels
Sampling rate               : 48.0 KHz
Compression mode            : Lossy
Stream size                 : 265 MiB (14%)
Alignment                   : Aligned on interleaves
Interleave, duration        : 24 ms (0.73 video frame)
Interleave, preload duratio : 1260 ms
Writing library             : LAME3.99.5
 
http://extraimago.com/image/7Us 
http://extraimago.com/image/7Un 
http://extraimago.com/image/7Uj 
http://extraimago.com/image/7UT 
http://extraimago.com/image/7UN 
http://extraimago.com/image/7U2 
http://extraimago.com/image/7Uw 
http://extraimago.com/image/7Ua 
http://extraimago.com/image/7U8 
http://extraimago.com/image/7Mf


รายการ หนูน้อยกู้อีจู้ | Josh Cruddas | Sasisa Jindamanee