layout

Terminator Genisys {2015} HDCAM READNFO X264 AC3-MRG

Torrent ID# B9E1BAA68EC277E00789651454E0CE54CC937200
NA
Added 2015-06-27 07:50:16   
Size 824.62 MiB in 10 files
Share
Seeders & Leechers 971/757
Category Video > Movies
Terminator Genisys {2015} HDCAM READNFO X264 AC3-MRG
Description
Screens:
 
http://imgmak.com/9c 
http://imgmak.com/9n 
http://imgmak.com/9r 
http://imgmak.com/9B

Terminator Genisys {2015} HDCAM READNFO X264 AC3-MRG

NFO: WELL EXCLUSIVE FULL HDCAM VOBS SHAME NOT ENG BUT HAY NICE VID READY FOR
THAT AUDIO......::}


portuguese Audio.

SOURCE                      : HDCAM VOBS....:)TY GUYS
Format                      : Matroska
Format version              : Version 2
File size                   : 823 MiB
Duration                    : 1h 56mn
Overall bit rate            : 985 Kbps


Video
ID                          : 1
Format                      : AVC
Format/Info                 : Advanced Video Codec
Format profile              : High@L3
Format settings, CABAC      : Yes
Format settings, ReFrames   : 4 frames
Codec ID                    : V_MPEG4/ISO/AVC
Duration                    : 1h 56mn
Bit rate                    : 774 Kbps
Width                       : 720 pixels
Height                      : 480 pixels
Display aspect ratio        : 3:2
Frame rate mode             : Constant
Frame rate                  : 29.970 fps
Standard                    : NTSC
Color space                 : YUV
Chroma subsampling          : 4:2:0
Bit depth                   : 8 bits
Scan type                   : Progressive
Bits/(Pixel*Frame)          : 0.075
Stream size                 : 647 MiB (79%)
Writing library             : x264 core 

Audio
ID                          : 2
Format                      : AC-3
Format/Info                 : Audio Coding 3
Mode extension              : CM (complete main)
Format settings, Endianness : Big
Codec ID                    : A_AC3
Duration                    : 1h 56mn
Bit rate mode               : Constant
Bit rate                    : 192 Kbps
Channel(s)                  : 2 channels
Channel positions           : Front: L R
Sampling rate               : 22.05 KHz
Compression mode            : Lossy
Delay relative to video     : 7ms
Stream size                 : 160 MiB (19%)
Default                     : Yes
Forced                      : No


Скачать | Künstler- & Zeichenbedarf | Miquel Fernández