layout

Terminator Genisys (2015) 1080p KORSUB HDTV x264 AAC - Showscen0

Torrent ID# B58147A164D772288069FDEE91C987E39B355ACA
NA
Added 2015-08-07 08:20:50   
Size 18.7 GiB in 1 files
Share
Category Video > Movies
Terminator Genisys (2015) 1080p KORSUB HDTV x264 AAC - Showscen0
Description
Terminator Genisys (2015) 1080p KORSUB HDTV x264 AAC - Showscen0wn3dCLAY
 
http://imgsparrow.co/image/M1
 
http://imgsparrow.co/image/9b

Info : - 

Thank Showscen0wn3dCLAY Not ME!

Original Uploder's Note: 
1)We share for all, Clay take that as an example
Have KORSUB
and after credit scene is included :) 
2) guys thanks for support , im uploading from home speed be Patience - enjoy

General
Complete name :Terminator.Genisys.2015.1080p.KORSUB.HDTV.x264.AAC-Showscen0wn3dCLAY.mp4
Format : MPEG-4
Format profile : Base Media / Version 2
Codec ID : mp42
File size : 18.7 GiB
Duration : 2h 0mn
Overall bit rate : 22.2 Mbps
Encoded date : UTC 2015-08-07 02:11:52
Tagged date : UTC 2015-08-07 02:11:52

Video
ID : 2
Format : AVC
Format/Info : Advanced Video Codec
Format profile : [email protected]
Format settings, CABAC : No
Format settings, ReFrames : 1 frame
Format settings, GOP : M=1, N=30
Codec ID : avc1
Codec ID/Info : Advanced Video Coding
Duration : 2h 0mn
Source duration : 2h 0mn
Bit rate : 22.1 Mbps
Width : 1 920 pixels
Height : 1 080 pixels
Display aspect ratio : 16:9
Frame rate mode : Constant
Frame rate : 30.000 fps
Color space : YUV
Chroma subsampling : 4:2:0
Bit depth : 8 bits
Scan type : Progressive
Bits/(Pixel*Frame) : 0.355
Stream size : 18.6 GiB (99%)
Source stream size : 18.6 GiB (99%)
Language : English
Encoded date : UTC 2015-08-07 02:11:52
Tagged date : UTC 2015-08-07 02:11:52
Color range : Limited
Color primaries : BT.709
Transfer characteristics : BT.709
Matrix coefficients : BT.709
mdhd_Duration : 7224905

Audio
ID : 1
Format : AAC
Format/Info : Advanced Audio Codec
Format profile : LC
Codec ID : 40
Duration : 2h 0mn
Source duration : 2h 0mn
Bit rate mode : Constant
Bit rate : 128 Kbps
Channel(s) : 2 channels
Channel positions : Front: L R
Sampling rate : 48.0 KHz
Compression mode : Lossy
Stream size : 110 MiB (1%)
Source stream size : 110 MiB (1%)
Language : English
Encoded date : UTC 2015-08-07 02:11:52
Tagged date : UTC 2015-08-07 02:11:52
mdhd_Duration : 7224906

Screens : - 
 
http://imgsparrow.co/image/8tc 
http://imgsparrow.co/image/8td 
http://imgsparrow.co/image/8to 
http://imgsparrow.co/image/8tM 
http://imgsparrow.co/image/8tm 
http://imgsparrow.co/image/8tF 
http://imgsparrow.co/image/8tO
 
http://imgsparrow.co/image/N2


Best F(r)iends: Volume 2 | Fushigi no Kuni no Miyuki-chan OVA Episode 2 English Subbed | trimble business cen