layout

Terminator.Genisys.1080p.WEB-DL.DD5.1.H264-RARBG

Torrent ID# AC40214B48AF14FA2B23E50783F58D16ED9078D3
NA
Added 2015-02-10 14:28:05   
Size 689.95 MiB in 2 files
Share
Seeders & Leechers 3029/823
Category Video > TV shows
Terminator.Genisys.1080p.WEB-DL.DD5.1.H264-RARBG
Description
Format : AVI
Format/Info : Audio Video Interleave
Overall bit rate : 1 177 Kbps
Writing library : MPlayer
Video
ID : 0
Format : MPEG-4 Visual
Format profile : Advanced Simple@L5
Format settings, BVOP : 2
Format settings, QPel : No
Format settings, GMC : No warppoints
Format settings, Matrix : Default (H.263)
Codec ID : XVID
Codec ID/Hint : XviD
Bit rate : 916 Kbps
Width : 640 pixels
Height : 352 pixels
Display aspect ratio : 16:9
Frame rate : 25.000 fps
Color space : YUV
Chroma subsampling : 4:2:0
Bit depth : 8 bits
Scan type : Progressive
Compression mode : Lossy
Bits/(Pixel*Frame) : 0.163
Stream size : 544 MiB (78%)
Writing library : XviD 63
Audio
ID : 1
Format : MPEG Audio
Format version : Version 1
Format profile : Layer 3
Mode : Joint stereo
Codec ID : 55
Codec ID/Hint : MP3
Bit rate mode : Constant
Bit rate : 256 Kbps
Channel(s) : 2 channels
Sampling rate : 44.1 KHz
Compression mode : Lossy
Delay relative to video : 40ms
Stream size : 152 MiB (22%)
Alignment : Split accross interleaves
Interleave, duration : 500 ms (12.50 video frames)
Interleave, preload duration : 500 ms


Link Removal Policy(DMCA) | Business Ethics - 413 Words | The Boss Baby: Back In Business: Season 2