layout

Terminator Genisys 2015 HC HDRip x264-MenaceIISociety

Torrent ID# 9FC4FD8690A86E169B12039F9AB76DDBEB312757
NA
Added 2015-08-08 04:45:50   
Size 926.9 MiB in 3 files
Share
Category Video > Movies
Terminator Genisys 2015 HC HDRip x264-MenaceIISociety
Description
SCREENS:
 
http://imgmak.com/lR
 
http://imgmak.com/lb
 
http://imgmak.com/lx
 
http://imgmak.com/lz
 
http://imgmak.com/l7
 
http://imgmak.com/lk
 
http://imgmak.com/lm
 
http://imgmak.com/lu

::::::;

General
Complete name : Terminator.Genisys.2015.HC.HDRip.x264-MenaceIISociety.mp4
Format : MPEG-4
Format profile : Base Media
Codec ID : isom
File size : 916 MiB
Duration : 2h 0mn
Overall bit rate mode : Variable
Overall bit rate : 1 063 Kbps
Encoded date : UTC 2015-08-08 00:53:29
Tagged date : UTC 2015-08-08 00:53:29

Video
ID : 1
Format : AVC
Format/Info : Advanced Video Codec
Format profile : [email protected]
Format settings, CABAC : Yes
Format settings, ReFrames : 3 frames
Codec ID : avc1
Codec ID/Info : Advanced Video Coding
Duration : 2h 0mn
Bit rate mode : Variable
Bit rate : 969 Kbps
Maximum bit rate : 40.0 Mbps
Width : 720 pixels
Height : 304 pixels
Display aspect ratio : 2.35:1
Frame rate mode : Constant
Frame rate : 30.000 fps
Color space : YUV
Chroma subsampling : 4:2:0
Bit depth : 8 bits
Scan type : Progressive
Bits/(Pixel*Frame) : 0.148
Stream size : 835 MiB (91%)
Writing library : x264 core 148 r2579 73ae2d1

Audio
ID : 2
Format : AAC
Format/Info : Advanced Audio Codec
Format profile : LC
Codec ID : 40
Duration : 2h 0mn
Bit rate mode : Variable
Bit rate : 89.8 Kbps
Maximum bit rate : 119 Kbps
Channel(s) : 2 channels
Channel positions : Front: L R
Sampling rate : 48.0 KHz
Compression mode : Lossy
Stream size : 77.4 MiB (8%)
Language : English
Encoded date : UTC 2015-08-07 22:54:29
Tagged date : UTC 2015-08-08 00:54:1


Esportes | Ghost in the Shell | Biker Mice from Mars