layout

Terminator Genisys {2015} V2 CAM XVID AC3-MRG

Torrent ID# 9ACDF0724F068894281E4EF23DAAF46556E9E136
NA
Added 2015-07-04 14:14:38   
Size 1.55 GiB in 15 files
Share
Seeders & Leechers 64/338
Category Video > Movies
Terminator Genisys {2015} V2 CAM XVID AC3-MRG
Description
http://extraimago.com/image/75z

Terminator Genisys {2015} V2 CAM XVID AC3-MRG

full audio till end credits .....allso included opening credit and
end credits scene........


Format : AVI
Format/Info : Audio Video Interleave
File size : 1.52 GiB
Duration : 1h 56mn
Overall bit rate : 1 864 Kbps

Video
ID : 0
Format : MPEG-4 Visual
Format profile : Advanced Simple@L5
Format settings, BVOP : 2
Format settings, QPel : No
Format settings, GMC : No warppoints
Format settings, Matrix : Default (H.263)
Muxing mode : Packed bitstream
Codec ID : XVID
Codec ID/Hint : XviD
Duration : 1h 56mn
Bit rate : 1 629 Kbps
Width : 720 pixels
Height : 324 pixels
Display aspect ratio : 2.222
Frame rate : 25.000 fps
Color space : YUV
Chroma subsampling : 4:2:0
Bit depth : 8 bits
Scan type : Progressive
Compression mode : Lossy
Bits/(Pixel*Frame) : 0.279
Stream size : 1.33 GiB (87%)
Writing library : XviD 73

Audio
ID : 1
Format : AC-3
Format/Info : Audio Coding 3
Mode extension : CM (complete main)
Format settings, Endianness : Big
Codec ID : 2000
Duration : 1h 56mn
Bit rate mode : Constant
Bit rate : 224 Kbps
Channel(s) : 2 channels
Channel positions : Front: L R
Sampling rate : 48.0 KHz
Bit depth : 16 bits
Compression mode : Lossy
Stream size : 187 MiB (12%)
Alignment : Aligned on interleaves
Interleave, duration : 32 ms (0.80 video frame)

 
http://extraimago.com/image/75p 
http://extraimago.com/image/75Y 
http://extraimago.com/image/75C 
http://extraimago.com/image/75B 
http://extraimago.com/image/754 
http://extraimago.com/image/75e 
http://extraimago.com/image/75Z 
http://extraimago.com/image/75K 
http://extraimago.com/image/75J 
http://extraimago.com/image/750


Jeff Roy | Successful Education - 562 Words | HD The Darkest Minds