layout

SPY.2015.HQCAM.REPACK.XVID.AC3.MRG

Torrent ID# 835A9337E948E7E8E1AE49B2C650DB2139F06ED7
NA
Added 2015-06-08 15:27:40   
Size 1.74 GiB in 18 files
Share
Seeders & Leechers 2092/2453
Category Video > Movies
SPY.2015.HQCAM.REPACK.XVID.AC3.MRG
Description
screens:
 
http://imgmak.com/36
 
http://imgmak.com/39
 
http://imgmak.com/3M
 
http://imgmak.com/3O
 
http://imgmak.com/3P

;::::::::::::::::::::::::::::::

SPY.2015.HQCAM.REPACK.XVID.AC3.MRG

RESYNC...RECODE......SAMPLE WITHIN.:)

Format : AVI
Format/Info : Audio Video Interleave
File size : 1.70 GiB
Duration : 1h 54mn
Overall bit rate : 2 124 Kbps
Writing library : VirtualDub build 35491/release

Video
ID : 0
Format : MPEG-4 Visual
Format profile : Advanced Simple@L5
Format settings, BVOP : 2
Format settings, QPel : No
Format settings, GMC : No warppoints
Format settings, Matrix : Default (H.263)
Codec ID : XVID
Codec ID/Hint : XviD
Duration : 1h 54mn
Bit rate : 1 920 Kbps
Width : 720 pixels
Height : 304 pixels
Display aspect ratio : 2.35:1
Frame rate : 29.970 fps
Color space : YUV
Chroma subsampling : 4:2:0
Bit depth : 8 bits
Scan type : Progressive
Compression mode : Lossy
Bits/(Pixel*Frame) : 0.293
Stream size : 1.53 GiB (90%)
Writing library : XviD 73

Audio
ID : 1
Format : AC-3
Format/Info : Audio Coding 3
Mode extension : CM (complete main)
Format settings, Endianness : Big
Codec ID : 2000
Duration : 1h 54mn
Bit rate mode : Constant
Bit rate : 192 Kbps
Channel(s) : 2 channels
Channel positions : Front: L R
Sampling rate : 48.0 KHz
Compression mode : Lossy
Stream size : 157 MiB (9%)
Alignment : Split accross interleaves
Interleave, duration : 33 ms (1.00 video frame)
Interleave, preload duratio : 500 ms


Intelligence US S01E13 HDTV x264 LOL | [WANZ-601] Adhesive Lori Slut SEX Would By Erection Until Out Of 10 Shots Yuna Himekawa | Podcast Republic apk mod