layout

Laggies.2014.WEBRip.XViD.AC3-Sorrow

Torrent ID# 7E3229C4C2AFADA1F624D6A86B105249F40E76C8
NA
Added 2015-07-23 08:48:00   
Size 1.31 GiB in 2 files
Share
Category Video > Movies
Laggies.2014.WEBRip.XViD.AC3-Sorrow
Description
Laggies 2014 WEBRip XViD AC3-Sorrow 

General
Complete name                            : Laggies.2014.WEBRip.XViD.AC3-Sorrow.avi
Format                                   : AVI
Format/Info                              : Audio Video Interleave
File size                                : 1.31 GiB
Duration                                 : 1h 39mn
Overall bit rate                         : 1 886 Kbps
Writing application                      : Lavf55.19.104
Writing library                          : 

Video
ID                                       : 0
Format                                   : MPEG-4 Visual
Format profile                           : Simple@L3
Format settings, BVOP                    : No
Format settings, QPel                    : No
Format settings, GMC                     : No warppoints
Format settings, Matrix                  : Default (H.263)
Codec ID                                 : XVID
Codec ID/Hint                            : XviD
Duration                                 : 1h 39mn
Bit rate                                 : 1 428 Kbps
Width                                    : 720 pixels
Height                                   : 384 pixels
Display aspect ratio                     : 1.000
Frame rate                               : 23.976 fps
Color space                              : YUV
Chroma subsampling                       : 4:2:0
Bit depth                                : 8 bits
Scan type                                : Progressive
Compression mode                         : Lossy
Bits/(Pixel*Frame)                       : 0.215
Stream size                              : 1 013 MiB (76%)
Writing library                          : XviD 64

Audio
ID                                       : 1
Format                                   : AC-3
Format/Info                              : Audio Coding 3
Mode extension                           : CM (complete main)
Format settings, Endianness              : Big
Codec ID                                 : 2000
Duration                                 : 1h 39mn
Bit rate mode                            : Constant
Bit rate                                 : 448 Kbps
Channel count                            : 2 channels
Channel positions                        : Front: L R
Sampling rate                            : 48.0 KHz
Bit depth                                : 16 bits
Compression mode                         : Lossy
Stream size                              : 318 MiB (24%)
Alignment                                : Aligned on interleaves
Interleave, duration                     : 32 ms (0.77 video frame)
Interleave, preload duration             : 512 ms



Comedy,Romance

In the throes of a quarter-life crisis, Megan panics when her boyfriend proposes, then, 

taking an opportunity to escape for a week, hides out in the home of her new friend, 16-

year-old Annika, who lives with her world-weary single dad.


Director: Lynn Shelton 

Writer: Andrea Seigel 

Stars: Keira Knightley, Chloë Grace Moretz, Sam Rockwell

 
http://www.imdb.com/title/tt2034031/


DC's Legends of Tomorrow | Chauranga 2016 Official Trailer Free Download HD 720p | Poll: Oscars 2019 — Best Achievement in Sound Editing