layout

Terminator.Genisys.720p.BrRip.x264.-.YIFY

Torrent ID# 5C93EB87E7ACA56ABB088105C0C9C51A1B071692
NA
Added 2015-02-14 15:47:43   
Size 698.95 MiB in 2 files
Share
Seeders & Leechers 1058/269
Category Video > Movies
Terminator.Genisys.720p.BrRip.x264.-.YIFY
Description
Format : AVI
Format/Info : Audio Video Interleave
Overall bit rate : 1 177 Kbps
Writing library : MPlayer
Video
ID : 0
Format : MPEG-4 Visual
Format profile : Advanced Simple@L5
Format settings, BVOP : 2
Format settings, QPel : No
Format settings, GMC : No warppoints
Format settings, Matrix : Default (H.263)
Codec ID : XVID
Codec ID/Hint : XviD
Bit rate : 916 Kbps
Width : 640 pixels
Height : 352 pixels
Display aspect ratio : 16:9
Frame rate : 25.000 fps
Color space : YUV
Chroma subsampling : 4:2:0
Bit depth : 8 bits
Scan type : Progressive
Compression mode : Lossy
Bits/(Pixel*Frame) : 0.163
Stream size : 544 MiB (78%)
Writing library : XviD 63
Audio
ID : 1
Format : MPEG Audio
Format version : Version 1
Format profile : Layer 3
Mode : Joint stereo
Codec ID : 55
Codec ID/Hint : MP3
Bit rate mode : Constant
Bit rate : 256 Kbps
Channel(s) : 2 channels
Sampling rate : 44.1 KHz
Compression mode : Lossy
Delay relative to video : 40ms
Stream size : 152 MiB (22%)
Alignment : Split accross interleaves
Interleave, duration : 500 ms (12.50 video frames)
Interleave, preload duration : 500 ms


Disgrace by Coetzee, J.M. Paperback Book | Root Call SMS Manager APK Full Version | Cupido HDTV