layout

Insurgent (2015) 2160p 4K UltraHD BluRay x265 (HEVC 10bit) Dolby

Torrent ID# 378E5894B9FA0A5882DB64B25D16341B6C90C12F
NA
Added 2017-01-09 12:33:36   
Size 53.29 GiB in 4 files
Share
Seeders & Leechers 40/308
Category Video > HD - Movies
Insurgent (2015) 2160p 4K UltraHD BluRay x265 (HEVC 10bit) Dolby
Description
2160p UHD 4K Blu-Ray Rip
HEVC 10 Bits BT709

English Dolby ATMOS 7.1 Audio

English + French Subtitle(s)

SCREENSHOTS 
 
http://extraimage.net/image/2Sxi 
http://extraimage.net/image/2Sxm 
http://extraimage.net/image/2SxR 
http://extraimage.net/image/2SxQ 
http://extraimage.net/image/2SxL 
http://extraimage.net/image/2Sxy 
http://extraimage.net/image/2Sxq

SPECS

Note:
Audio + Subs + Chapter files are from BD50 HD Blu-Ray synced and mixed to UHD-4K Video from ZEUS.

High End CPU + GPU is required to play very high bitrate 4K.
Fully tested with :
- PC with PotPlayer V 1.6 / Xeon Broadwell CPU / NVidia GTX1080
- Nvidia Shield streaming through PLEX on Samsung TV

Format : Matroska
File size : 53.0 GiB
Duration : 1 h 58 min
Overall bit rate mode : Variable
Overall bit rate : 64.1 Mb/s

Video
Format : HEVC
Format/Info : High Efficiency Video Coding
Format profile : Main [email protected]@Main
Codec ID : V_MPEGH/ISO/HEVC
Duration : 1 h 58 min
Bit rate : 59.5 Mb/s
Width : 3 840 pixels
Height : 2 160 pixels
Display aspect ratio : 16:9
Frame rate mode : Constant
Frame rate : 23.976 (24000/1001) FPS
Color space : YUV
Chroma subsampling : 4:2:0
Bit depth : 10 bits
Bits/(Pixel*Frame) : 0.299
Stream size : 49.2 GiB (93%)
Writing library : x265 1.9+3-63308f7658c3:[Windows][GCC 5.2.0][64 bit] 10bit
Language : English
Default : Yes
Forced : No
Color range : Limited
Color primaries : BT.709
Transfer characteristics : BT.709
Matrix coefficients : BT.601

Audio #1
Format : Atmos / TrueHD
Codec ID : A_TRUEHD
Duration : 1 h 58 min
Bit rate mode : Variable
Bit rate : 4 516 kb/s
Maximum bit rate : 7 116 kb/s
Channel(s) : Object Based / 8 channels
Channel positions : Object Based / Front: L C R, Side: L R, Back: L R, LFE
Sampling rate : / 48.0 kHz
Frame rate : 1 200.000 FPS (40 spf)
Compression mode : Lossless
Delay relative to video : 1 s 300 ms
Stream size : 3.74 GiB (7%)
Language : English
Default : No
Forced : No

Chapters : YES


SAMPLE Included


Creed II – Rocky's Legacy film stream | Ka Tung Lam | Suche Weekender, l ca. 6,50 m - op zoek naar een weekender