layout

Terminator Genisys 2015 CAM XviD AC3-MenaceIISociety

Torrent ID# 2DA8ABFAA827230CA276ADB2440C5DA54E87429D
NA
Added 2015-07-03 18:28:27   
Size 1.28 GiB in 4 files
Share
Category Video > Movies
Terminator Genisys 2015 CAM XviD AC3-MenaceIISociety
Description
http://imgmak.com/Ox
 
http://www.imdb.com/title/tt1340138/

Audio - MRG [THANKS]

Note: Same vid as the x264 just in XviD format, give the source a -2 rotate, resized, applied some gain and coef settings to make the dark areas a bit more visible  hardly any movement in ths video, its a tad blurry but its straight  Audio is very nice

General
Complete name: Terminator.Genisys.2015.CAM.XviD.AC3-MenaceIISociety.avi
Format: AVI
Format/Info: Audio Video Interleave
File size: 1.48 GiB
Duration: 1h 56mn
Overall bit rate: 1 812 Kbps

Video
ID: 0
Format: MPEG-4 Visual
Format profile: Advanced Simple@L5
Format settings, BVOP: 2
Format settings, QPel: No
Format settings, GMC: No warppoints
Format settings, Matrix: Default (H.263)
Muxing mode: Packed bitstream
Codec ID: XVID
Codec ID/Hint: XviD
Duration: 1h 56mn
Bit rate: 1 420 Kbps
Width: 720 pixels
Height: 304 pixels
Display aspect ratio: 2.35:1
Frame rate: 29.970 fps
Color space: YUV
Chroma subsampling: 4:2:0
Bit depth: 8 bits
Scan type: Progressive
Compression mode: Lossy
Bits/(Pixel*Frame): 0.216
Stream size: 1.16 GiB (78%)
Writing library: XviD 64

Audio
ID: 1
Format: AC-3
Format/Info: Audio Coding 3
Mode extension: CM (complete main)
Format settings, Endianness: Big
Codec ID: 2000
Duration: 1h 56mn
Bit rate mode: Constant
Bit rate: 384 Kbps
Channel(s): 2 channels
Channel positions: Front: L R
Sampling rate: 48.0 KHz
Compression mode: Lossy
Stream size: 321 MiB (21%)
Alignment: Aligned on interleaves
Interleave, duration: 64 ms (1.92 video frames)


Funda Profesional Ps4 Carcasa Silicona Para Mando Sony Playstation Dualshock 4 | Grimsby – Agent trop spécial | Jeepers Creepers 3 Jeepers Creepers 3 (2017) Horror, Mystery, ThrillerTaking place on the last day of the Creeper’s twenty-three-day feeding frenzy, as the skeptical Sergeant Tubbs teams up with a task force hellbent on destroying the Creeper for good. The Creeper fights back in gory glory as its enemies grow closer than ever before to learning the secret of its dark origins.