layout

SPY.2015.FULL.NEW.CAM.XVID.AC3.MRG

Torrent ID# 2A147FCE9B5877DBC8653A5728D285819F269515
NA
Added 2015-06-09 06:30:44   
Size 1.49 GiB in 15 files
Share
Seeders & Leechers 76/105
Category Video > Movies
SPY.2015.FULL.NEW.CAM.XVID.AC3.MRG
Description
screens:
 
http://imgmak.com/3E
 
http://imgmak.com/3h
 
http://imgmak.com/3l
 
http://imgmak.com/3V

:::::::::::::::::::::::::::::::::::::::::::::

SPY.2015.FULL.NEW.CAM.XVID.AC3.MRG

M.R.G.....info....

new video....:)

heres another new source full movie ...same audio...
been worked a bit sounds a little better .....


Format : AVI
Format/Info : Audio Video Interleave
File size : 1.49 GiB
Duration : 1h 55mn
Overall bit rate : 1 842 Kbps

Video
ID : 0
Format : MPEG-4 Visual
Format profile : Advanced Simple@L5
Format settings, BVOP : 2
Format settings, QPel : No
Format settings, GMC : No warppoints
Format settings, Matrix : Default (H.263)
Codec ID : XVID
Codec ID/Hint : XviD
Duration : 1h 55mn
Bit rate : 1 702 Kbps
Width : 720 pixels
Height : 280 pixels
Display aspect ratio : 2.571
Frame rate : 29.970 fps
Color space : YUV
Chroma subsampling : 4:2:0
Bit depth : 8 bits
Scan type : Progressive
Compression mode : Lossy
Bits/(Pixel*Frame) : 0.282
Stream size : 1.37 GiB (92%)
Writing library : XviD 73

Audio
ID : 1
Format : AC-3
Format/Info : Audio Coding 3
Mode extension : CM (complete main)
Format settings, Endianness : Big
Codec ID : 2000
Duration : 1h 55mn
Bit rate mode : Constant
Bit rate : 128 Kbps
Channel(s) : 2 channels
Channel positions : Front: L R
Sampling rate : 48.0 KHz
Compression mode : Lossy
Stream size : 105 MiB (7%)
Alignment : Aligned on interleaves
Interleave, duration : 32 ms (0.96 video frame)


VanSinema Salonları | JOHN DEEPER @ Smile FM - 01.01.2016 (Ep. 75) (HAPPY NEW YEAR) | Nurse Akali cosplay ^_^