layout

Terminator.Genisys.2015.NEW.TS.x264-MenaceIISociety

Torrent ID# 20E83CC5394F8974454DF2AEA84771DA538C76A0
NA
Added 2015-08-08 06:56:52   
Size 1.14 GiB in 4 files
Share
Seeders & Leechers 1/6
Category Video > Movies
Terminator.Genisys.2015.NEW.TS.x264-MenaceIISociety
Description
------------------------------------------------------------------------

  http://www.torrenting.com

Sign up is OPEN - for time being. Come and have fun

.......................................................................................................................[img]http://s30.postimg.org/xl2ub574h/terminator_genisys_ver2_brxlg.jpg[/img]

Terminator.Genisys.2015.NEW.TS.x264-MenaceIISociety 
http://www.imdb.com/title/tt1340138/

Source: 720p-Hive-CM8 [THANKS]

NOTES: Big thanks to Hive for bringing this for us all :) i just raised some gamma_y and gamma_u, applied some coef adjustments.

General
Complete name                            : Terminator.Genisys.2015.NEW.TS.x264-MenaceIISociety.mp4
Format                                   : MPEG-4
Format profile                           : Base Media
Codec ID                                 : isom
File size                                : 1.12 GiB
Duration                                 : 1h 57mn
Overall bit rate mode                    : Variable
Overall bit rate                         : 1 357 Kbps
Encoded date                             : UTC 2015-07-18 00:21:13
Tagged date                              : UTC 2015-07-18 00:21:13

Video
ID                                       : 1
Format                                   : AVC
Format/Info                              : Advanced Video Codec
Format profile                           : [email protected]
Format settings, CABAC                   : Yes
Format settings, ReFrames                : 3 frames
Codec ID                                 : avc1
Codec ID/Info                            : Advanced Video Coding
Duration                                 : 1h 57mn
Bit rate mode                            : Variable
Bit rate                                 : 1 216 Kbps
Maximum bit rate                         : 40.0 Mbps
Width                                    : 720 pixels
Height                                   : 384 pixels
Display aspect ratio                     : 1.85:1
Frame rate mode                          : Constant
Frame rate                               : 29.970 fps
Color space                              : YUV
Chroma subsampling                       : 4:2:0
Bit depth                                : 8 bits
Scan type                                : Progressive
Bits/(Pixel*Frame)                       : 0.147
Stream size                              : 1.00 GiB (90%)
Writing library                          : x264 core 146 r2538 121396c

Audio
ID                                       : 2
Format                                   : AAC
Format/Info                              : Advanced Audio Codec
Format profile                           : LC
Codec ID                                 : 40
Duration                                 : 1h 57mn
Bit rate mode                            : Variable
Bit rate                                 : 136 Kbps
Maximum bit rate                         : 152 Kbps
Channel(s)                               : 2 channels
Channel positions                        : Front: L R
Sampling rate                            : 48.0 KHz
Compression mode                         : Lossy
Stream size                              : 115 MiB (10%)
Language                                 : English
Encoded date                             : UTC 2015-07-17 22:31:17
Tagged date                              : UTC 2015-07-18 00:38:05

[img]http://s7.postimg.org/fh9aws1cb/vlcsnap_2015_07_18_02h45m27s272.jpg[/img]
[img]http://s7.postimg.org/5vfqgha6j/vlcsnap_2015_07_18_02h47m58s030.jpg[/img]
[img]http://s7.postimg.org/zfkklewnf/vlcsnap_2015_07_18_02h49m15s106.jpg[/img]
[img]http://s7.postimg.org/yfyv3g6vf/vlcsnap_2015_07_18_02h54m13s948.jpg[/img]
[img]http://s7.postimg.org/nwyvea47f/vlcsnap_2015_07_18_02h54m58s676.jpg[/img]
[img]http://s7.postimg.org/enwp45vbf/vlcsnap_2015_07_18_02h55m53s846.jpg[/img]
[img]http://s7.postimg.org/c2r4gn5xn/vlcsnap_2015_07_18_02h56m09s467.jpg[/img]
[img]http://s7.postimg.org/re0xh939n/vlcsnap_2015_07_18_02h56m43s063.jpg[/img]
[img]http://s7.postimg.org/t3em328cr/vlcsnap_2015_07_18_02h59m28s541.jpg[/img]
[img]http://s7.postimg.org/5xzm3bdu3/vlcsnap_2015_07_18_03h00m58s413.jpg[/img]
[img]http://s7.postimg.org/fl34d16tn/vlcsnap_2015_07_18_03h01m30s598.jpg[/img]
[img]http://s7.postimg.org/thfy2nsgb/vlcsnap_2015_07_18_03h03m14s768.jpg[/img]
[img]http://s7.postimg.org/x9uv4nikr/vlcsnap_2015_07_18_03h04m15s772.jpg[/img]
[img]http://s7.postimg.org/s3ob7ct6z/vlcsnap_2015_07_18_03h04m41s283.jpg[/img]
[img]http://s7.postimg.org/417hchcjv/vlcsnap_2015_07_18_03h07m49s514.jpg[/img]
[img]http://s7.postimg.org/lfrpkr9or/vlcsnap_2015_07_18_03h11m23s801.jpg[/img]
[img]http://s7.postimg.org/r57y52fuz/vlcsnap_2015_07_18_03h11m38s833.jpg[/img] 

[img]http://s17.postimg.org/r1iiyw8yn/Untitled_1.png[/img]


Nemesis 5: The New Model (2017) | beautifulquilts.com | F. Murray Abraham