layout

Terminator.Genisys.2015.HC.HDRiP.XViD.ReLeNTLesS

Torrent ID# 1CDD1F7872932CD71FBE38268304CBD2A976AD41
NA
Added 2015-08-09 09:44:20   
Size 1.46 GiB in 4 files
Share
Category Video > Movies
Terminator.Genisys.2015.HC.HDRiP.XViD.ReLeNTLesS
Description
------------------------------------------------------------------------

  http://www.torrenting.com

Sign up is OPEN - for time being. Come and have fun

.......................................................................................................................P0STER
[img]http://i.imgur.com/D6mKOqU.png[/img]

iMDB: http://www.imdb.com/title/tt1340138/

General
Complete name               : Terminator.Genisys.2015.HC.HDRiP.XViD.ReLeNTLesS.avi
Format                      : AVI
Format/Info                 : Audio Video Interleave
File size                   : 1.44 GiB
Duration                    : 2h 0mn
Overall bit rate            : 1 706 Kbps

Video
ID                          : 0
Format                      : MPEG-4 Visual
Format profile              : Advanced Simple@L5
Format settings, BVOP       : 1
Format settings, QPel       : No
Format settings, GMC        : No warppoints
Format settings, Matrix     : Default (H.263)
Muxing mode                 : Packed bitstream
Codec ID                    : XVID
Codec ID/Hint               : XviD
Duration                    : 2h 0mn
Bit rate                    : 1 505 Kbps
Width                       : 720 pixels
Height                      : 304 pixels
Display aspect ratio        : 2.35:1
Frame rate                  : 30.000 fps
Color space                 : YUV
Chroma subsampling          : 4:2:0
Bit depth                   : 8 bits
Scan type                   : Progressive
Compression mode            : Lossy
Bits/(Pixel*Frame)          : 0.229
Stream size                 : 1.27 GiB (88%)
Writing library             : XviD 1.2.1 (UTC 2008-12-04)

Audio
ID                          : 1
Format                      : AC-3
Format/Info                 : Audio Coding 3
Mode extension              : CM (complete main)
Format settings, Endianness : Big
Codec ID                    : 2000
Duration                    : 2h 0mn
Bit rate mode               : Constant
Bit rate                    : 192 Kbps
Channel(s)                  : 2 channels
Channel positions           : Front: L R
Sampling rate               : 48.0 KHz
Compression mode            : Lossy
Stream size                 : 165 MiB (11%)
Alignment                   : Aligned on interleaves
Interleave, duration        : 64 ms (1.92 video frames)
Interleave, preload duratio : 192 ms
Title                       : Terminator.Genisys.2015.ReLeNTLesS.Audio.2.0.English
Sample Included             : Yes
Source                      : Yep the 18 gig 1080

PL0T
John Connor sends Kyle Reese back in time to protect Sarah Connor, but when he arrives in 1984, nothing is as he expected it to be.

CAST
Director: Alan Taylor
Writers: Laeta Kalogridis, Patrick Lussier
Stars: Arnold Schwarzenegger, Jason Clarke, Emilia Clarke

N0TE
For a large source it wasn't perfect. Cropped Boarders, Brightend the dark scenes a bit, degrained, sharpend, did audio and muxed.  Hardcoded Subs throughout.

SCREENS
[img]http://i.imgur.com/7lIFypl.png[/img]
[img]http://i.imgur.com/jMEzcwc.png[/img]
[img]http://i.imgur.com/ejZiM9z.png[/img]
[img]http://i.imgur.com/Z1wXkOk.png[/img]
[img]http://i.imgur.com/QRbDffb.png[/img]
[img]http://i.imgur.com/TFK7jxw.png[/img]

TRAiLER

GREETZ


HIVE-CM8, Blackjesus, M0RPH, M00SE, MiLLENiUM,

MANiX, TiTAN, Anonymous, TuX, 

ACAB, KingStoner, FooKas, 4PlayHD, 

GodFather, Cld.... 

Keep up the good work guyz


Claire Forlani | The Other Side of the Door | Bad Karma