layout

Hannibal S03E05 720p HDTV X264-DIMENSION

Torrent ID# 128C7D09010C1395033AA29C9BA5ACE34F83992B
NA
Added 2015-07-03 11:52:44   
Size 740.47 MiB in 3 files
Share
Category Video > HD - TV shows
Hannibal S03E05 720p HDTV X264-DIMENSION
Description
Video
ID : 1
Format : AVC
Format/Info : Advanced Video Codec
Format profile : [email protected]
Format settings, CABAC : Yes
Format settings, ReFrames : 8 frames
Codec ID : V_MPEG4/ISO/AVC
Duration : 43mn 8s
Bit rate : 1 903 Kbps
Width : 1 280 pixels
Height : 720 pixels
Display aspect ratio : 16:9
Frame rate mode : Constant
Frame rate : 23.976 fps
Color space : YUV
Chroma subsampling : 4:2:0
Bit depth : 8 bits
Scan type : Progressive
Bits/(Pixel*Frame) : 0.086
Stream size : 587 MiB (82%)
Writing library : x264 core 146 r2538 121396c
aq=1:1.00
Language : English
Default : Yes
Forced : No
Color range : Limited
Matrix coefficients : BT.709

Audio
ID : 2
Format : AC-3
Format/Info : Audio Coding 3
Mode extension : CM (complete main)
Format settings, Endianness : Big
Codec ID : A_AC3
Duration : 43mn 8s
Bit rate mode : Constant
Bit rate : 384 Kbps
Channel(s) : 6 channels
Channel positions : Front: L C R, Side: L R, LFE
Sampling rate : 48.0 KHz
Compression mode : Lossy
Stream size : 119 MiB (16%)
Default : Yes
Forced : No
image


Pantera negra "Pantera negra" cuenta la historia de T'Challa quien, después de los acontecimientos de "Capitán América: Civil War", vuelve a casa, a la nación de Wakanda, aislada y muy avanzada tecnológicamente, para ser proclamado Rey. Pero la reaparición de un viejo enemigo pone a prueba el temple de T'Challa como Rey y Black Panther ya que se ve arrastrado a un ... | Точь в точь | Old Skool Tagalog Reggae Classics Songs 2019 Chocolate Factory ,Tropical Depression, Blakdyak MP3