layout

Terminator.Genisys.2015.HD-TS.XVID.AC3.HQ.Hive-CM8

Torrent ID# 1050078314BA9AE2FAF092B98E20F1000ACDA109
NA
Added 2015-07-06 05:36:41   
Size 1.68 GiB in 6 files
Share
Seeders & Leechers 108/395
Category Video > Movies
Terminator.Genisys.2015.HD-TS.XVID.AC3.HQ.Hive-CM8
Description
http://extraimago.com/image/701
 
http://www.imdb.com/title/tt1340138/


John Connor sends Kyle Reese back in time to protect Sarah Connor, but when he arrives in 1984, nothing is as he expected it to be.

Director: Alan Taylor
Writers: Laeta Kalogridis, Patrick Lussier
Stars: Arnold Schwarzenegger, Jason Clarke, Emilia Clarke 
Genres: Action | Adventure | Sci-Fi | Thriller
Country: USA
Language: English


Terminator.Genisys.2015.HD-TS.XVID.AC3.HQ.Hive-CM8

Thx Hive

CM8 Doing It Right The First Time

Sources:

Video: MRG + intro + afterending scenes
Audio: Sweet Line Big Thx to S4NDM4N

Notes:

video from mrg was nice and complete only the intro was missing which i now got too
the cam itself is ok, the first hour is a bit darker than the rest, but more than watchable

Encode:

looks like the cam is a mix of 3 recordings, needed to be cut in pieces and every part needed adjusting perspective and ar differently
ended up with 3 parts with different resolution, from 720x288 up to 720x336, since i didnt want to crop 50 lines i added virtual borders
for the parts that didnt have the highest height, so no eggheads, no shrinked ones, and nothing cropped
since the first hour is a bit darker than the rest i added brightness and contrast as needed without going over, colouring adjusted when needed too

added intro from a fan I.R thx m8, also appended the afterendcreditscene from another fan thx too
so its all here from start to finish with great audio and all special effects are perfect now too

for the Audio i got another great perfect line no cleaning needed, lipsynced it to my video

will do me till a web-dl pops up
got very nice
enjoy

PS: a special thx to cadance who sent me a very nice audio for that movie, which i couldnt use cause the direct line is better
thx m8

Video: 720x336 @bitrate 1700 2pass
Audio: English Line Stereo 2.0
Sample: yes included dark,normal,daylight

General

Complete name: Terminator.Genisys.2015.HD-TS.XVID.AC3.HQ.Hive-CM8.avi
Format: AVI
Format/Info: Audio Video Interleave
File size: 1.65 GiB
Duration: 2h 0mn
Overall bit rate: 1 969 Kbps
Writing application: Nandub v1.0rc2
Writing library: Nandub build 1853/release

Video
ID: 0
Format: MPEG-4 Visual
Format profile: Advanced Simple@L5
Format settings, BVOP: 2
Format settings, QPel: Yes
Format settings, GMC: No warppoints
Format settings, Matrix: Default (H.263)
Muxing mode: Packed bitstream
Codec ID: XVID
Codec ID/Hint: XviD
Duration: 2h 0mn
Bit rate: 1 701 Kbps
Width: 720 pixels
Height: 336 pixels
Display aspect ratio: 2.143
Frame rate: 29.970 fps
Color space: YUV
Chroma subsampling: 4:2:0
Bit depth: 8 bits
Scan type: Progressive
Compression mode: Lossy
Bits/(Pixel*Frame): 0.235
Stream size: 1.43 GiB (86%)
Writing library: XviD 1.2.1 (UTC 2008-12-04)

Audio
ID: 1
Format: AC-3
Format/Info: Audio Coding 3
Mode extension: CM (complete main)
Format settings, Endianness: Big
Codec ID: 2000
Duration: 2h 0mn
Bit rate mode: Constant
Bit rate: 256 Kbps
Channel(s): 2 channels
Channel positions: Front: L R
Sampling rate: 48.0 KHz
Bit depth: 16 bits
Compression mode: Lossy
Stream size: 220 MiB (13%)
Alignment: Split accross interleaves
Interleave, duration: 33 ms (1.00 video frame)
Interleave, preload duration: 500 ms

 
http://extraimago.com/image/7Ap 
http://extraimago.com/image/7Ar 
http://extraimago.com/image/7AG 
http://extraimago.com/image/7AP 
http://extraimago.com/image/7AX 
http://extraimago.com/image/7Ag 
http://extraimago.com/image/7A5 
http://extraimago.com/image/7AD 
http://extraimago.com/image/7AF


CloudFlare | Extra Fill Comfort U or V Pillow Body Back Support Nursing Maternity Pregnancy | Jersey Shore Family Vacation S2E18 Episode 18