layout

Terminator Genisys 2015 1080p KORSUB HDTV x264 AAC-ShowS

Torrent ID# 0D65040093350ED638FAF02CA940FED2EBD41DF6
NA
Added 2015-08-08 06:07:11   
Size 18.7 GiB in 1 files
Share
Category Video > Movies
Terminator Genisys 2015 1080p KORSUB HDTV x264 AAC-ShowS
Description
screens:
 
http://imgmak.com/lY
 
http://imgmak.com/l0
 
http://imgmak.com/lA
 
http://imgmak.com/lD
 
http://imgmak.com/lf

:;;;;;;;;;

General
Complete name : Terminator.Genisys.2015.1080p.KORSUB.HDTV.x264.AAC-ShowS.mp4
Format : MPEG-4
Format profile : Base Media / Version 2
Codec ID : mp42
File size : 18.7 GiB
Duration : 2h 0mn
Overall bit rate : 22.2 Mbps
Encoded date : UTC 2015-08-07 02:11:52
Tagged date : UTC 2015-08-07 02:11:52

Video
ID : 2
Format : AVC
Format/Info : Advanced Video Codec
Format profile : [email protected]
Format settings, CABAC : No
Format settings, ReFrames : 1 frame
Format settings, GOP : M=1, N=30
Codec ID : avc1
Codec ID/Info : Advanced Video Coding
Duration : 2h 0mn
Source duration : 2h 0mn
Bit rate : 22.1 Mbps
Width : 1 920 pixels
Height : 1 080 pixels
Display aspect ratio : 16:9
Frame rate mode : Constant
Frame rate : 30.000 fps
Color space : YUV
Chroma subsampling : 4:2:0
Bit depth : 8 bits
Scan type : Progressive
Bits/(Pixel*Frame) : 0.355
Stream size : 18.6 GiB (99%)
Source stream size : 18.6 GiB (99%)
Language : English
Encoded date : UTC 2015-08-07 02:11:52
Tagged date : UTC 2015-08-07 02:11:52
mdhd_Duration : 7224904
Color primaries : BT.709
Transfer characteristics : BT.709
Matrix coefficients : BT.709

Audio
ID : 1
Format : AAC
Format/Info : Advanced Audio Codec
Format profile : LC
Codec ID : 40
Duration : 2h 0mn
Source duration : 2h 0mn
Bit rate mode : Constant
Bit rate : 128 Kbps
Channel(s) : 2 channels
Channel positions : Front: L R
Sampling rate : 48.0 KHz
Compression mode : Lossy
Stream size : 110 MiB (1%)
Source stream size : 110 MiB (1%)
Language : English
Encoded date : UTC 2015-08-07 02:11:52
Tagged date : UTC 2015-08-07 02:11:52
mdhd_Duration : 7224906

Screens


Химия / Биохимия | Burden of Truth - Season 2 | Lethal Weapon