layout

Terminator.Genisys.2015.HC.HDRiP.XViD.ReLeNTLesS

Torrent ID# 0CBBCC3E1140D2C1EEC974F9AACE9CF417B5CFAB
NA
Added 2015-08-08 17:08:37   
Size 1.44 GiB in 1 files
Share
Category Video > Movies
Terminator.Genisys.2015.HC.HDRiP.XViD.ReLeNTLesS
Description
Terminator Genisys 2015 KORSUB
When John Connor (Jason Clarke), leader of the human resistance, sends Sgt. Kyle Reese (Jai Courtney) back to 1984 to protect Sarah Connor (Emilia Clarke) and safeguard the future, an unexpected turn of events creates a fractured timeline. Now, Sgt. Reese finds himself in a new and unfamiliar version of the past, where he is faced with unlikely allies, including the Guardian (Arnold Schwarzenegger), dangerous new enemies, and an unexpected new mission: To reset the future... 

General
Complete name                            : M:PostsTerminator.Genisys.2015.HC.HDRiP.XViD.ReLeNTLesSTerminator.Genisys.2015.HC.HDRiP.XViD.ReLeNTLesS.avi
Format                                   : AVI
Format/Info                              : Audio Video Interleave
File size                                : 1.44 GiB
Duration                                 : 2h 0mn
Overall bit rate                         : 1 706 Kbps

Video
ID                                       : 0
Format                                   : MPEG-4 Visual
Format profile                           : Advanced Simple@L5
Format settings, BVOP                    : 1
Format settings, QPel                    : No
Format settings, GMC                     : No warppoints
Format settings, Matrix                  : Default (H.263)
Muxing mode                              : Packed bitstream
Codec ID                                 : XVID
Codec ID/Hint                            : XviD
Duration                                 : 2h 0mn
Bit rate                                 : 1 505 Kbps
Width                                    : 720 pixels
Height                                   : 304 pixels
Display aspect ratio                     : 2.35:1
Frame rate                               : 30.000 fps
Color space                              : YUV
Chroma subsampling                       : 4:2:0
Bit depth                                : 8 bits
Scan type                                : Progressive
Compression mode                         : Lossy
Bits/(Pixel*Frame)                       : 0.229
Stream size                              : 1.27 GiB (88%)
Writing library                          : XviD 1.2.1 (UTC 2008-12-04)

Audio
ID                                       : 1
Format                                   : AC-3
Format/Info                              : Audio Coding 3
Mode extension                           : CM (complete main)
Codec ID                                 : 2000
Duration                                 : 2h 0mn
Bit rate mode                            : Constant
Bit rate                                 : 192 Kbps
Channel(s)                               : 2 channels
Channel positions                        : Front: L R
Sampling rate                            : 48.0 KHz
Bit depth                                : 16 bits
Compression mode                         : Lossy
Stream size                              : 165 MiB (11%)
Alignment                                : Aligned on interleaves
Interleave, duration                     : 64 ms (1.92 video frames)
Interleave, preload duration             : 192 ms
Title                                    : Terminator.Genisys.2015.ReLeNTLesS.Audio.2.0.English


01.08.1623:44 Uhr Gerlosbluat Aus Dem Zillertal - Auf Der Alm Do Gibts Koa Suend Folk256 kbit/s 0 / 03.014 Hits VID P2P DDL 0 Kommentare | Pirates of the Caribbean 5: Salazars Rache (2017) | III (2018)