layout

laggies {2014} Movie HDRip

Torrent ID# 07EADDCCD4EE5E0430094A99494100E365EDC39E
NA
Added 2014-10-16 19:34:57   
Size 2.26 GiB in 1 files
Share
Seeders & Leechers 1/0
Category Video > Movies DVDR
laggies {2014} Movie HDRip
Description
Story : In the throes of a quarter-life crisis, Megan panics when her boyfriend proposes, then, taking an opportunity to escape for a week, hides out in the home of her new friend, 16-year-old Annika, who lives with her world-weary single dad





22 Jump Street (2014) WEBDL DVDRip XviD-MAX
Format                                   : AVI
Format/Info                              : Audio Video Interleave
Format profile                           : OpenDML
Format settings                          : rec
File size                                : 2.3 GiB
Duration                                 : 100 mn
Overall bit rate                         : 2 116 Kbps

Video
ID                                       : 0
Format                                   : MPEG-4 Visual
Format profile                           : Advanced Simple@L5
Format settings, Matrix                  : Default (MPEG)
Duration                                 : 100mn
Bit rate                                 : 1 727 Kbps
Width                                    : 720 pixels
Height                                   : 304 pixels
Display aspect ratio                     : 2.35:1
Frame rate                               : 23.976 fps
Color space                              : YUV
Chroma subsampling                       : 4:2:0
Bit depth                                : 8 bits
Scan type                                : Progressive
Compression mode                         : Lossy
Bits/(Pixel*Frame)                       : 0.329
Stream size                              : 2.3 GiB (82%)
Writing library                          : XviD 1.2.1 

Audio
ID                                       : 1
Format                                   : AC-3
Format/Info                              : Audio Coding 3
Mode extension                           : CM (complete main)
Format settings, Endianness              : Big
Codec ID                                 : 2000
Duration                                 : 100 mn
Bit rate mode                            : Constant
Bit rate                                 : 384 Kbps
Channel(s)                               : 2 channels
Channel positions                        : Front: L R
Sampling rate                            : 48.0 KHz
Bit depth                                : 16 bits
Compression mode                         : Lossy
Stream size                              : 308 MiB (18%)
Alignment                                : Aligned on interleaves
Interleave, duration                     : 64 ms (1.53 video frames)
Interleave, preload duration             : 192 ms


Fast and Furious 7 | GraphicRiver Premium Photoshop Styles Vol.3 | deutchepunk